Iko Iko. Shop Wild Tchoupitoulas [Us Import]. He copied it down phonetically, and everyone has been singing the wrong words ever since. Comparer. A playlist featuring The Dixie Cups, Buckwheat Zydeco, Zachary Richard, and others Playing via Spotify Playing via YouTube. Tipitina - Professor Longhair 3. Rumble : The Indians who Rocked the world, de Catherine Bainbridge et Alfonso Maiorana est en salles depuis le 7 novembre : bande-annonce (et liste des salles). The lyrics are derived from Indian chants and popular catchphrases. This part of Mardi Gras Indian history is immortalized in James Sugar Boy Crawford's song, "Jock O Mo" (better known and often covered as "Iko Iko"), based on their taunting chants. Related Playlists: GOGO DC, Go-Go-Centric: Bustin' Loose/Back It On Up to JB https://open.spotify.com/user/fangoguagua/playlist/2DvgcNXaaeZpnuArLkwDMK Musique. Expect to hear staples like “Iko Iko,” Hey Pocky Way,” and “Tell It Like It Is” pop up throughout the … The Wild Tchoupitoulas’ LP is easily good enough to be mentioned on the funk albums thread. Hunting Route and secret mount location . Retour aux sources de la musique populaire américaine à travers l’exploration de l’héritage des Amérindiens. Log in to Reply. Об исполнителе (группе) allmusic.com. It’s also a tribute to a musician friend. The quartet’s hit, ‘Brother John/Iko Iko’ is a gumbo of musical influences, including Creole, funk, R&B, doo-wop and girl-group pop. “Brother John” was a highlight of the Wild Tchoupitoulas album, while “Iko Iko” was simply one of the most ubiquitous New Orleans songs this side of “The Saints Go Marching In,” with some of the finest nonsense lyrics ever. 1 Appearance of the Dancer 1.1 Original 1.2 Remake 2 Background 2.1 Original 2.2 Just Dance 3 (Xbox 360) 2.3 Remake 3 Gold Moves 4 Appearances in Mashups 5 … The album features "call-and-response" style chants typical of Mardi Gras Indians. 1941), and Cyril (b. IKO - IKO CORE 0056100 220720 4 EN Before using this headlamp, you must: - Read and understand all Instructions for Use. Backing band was provided in … Find helpful customer reviews and review ratings for Wild Tchoupitoulas at Amazon.com. Iko iko / par The Dixie Cups. The Wild Tchoupitoulas, a group of Mardi Gras Indians formed in the early 1970's by George Landry, joined with New Orleans funk band, The Meters and recorded an album, featuring the "call-and-response" style chants typical of Mardi Gras Indians. Hey hey (Indians comin') / par The Wild Tchoupitoulas. Nomenclature (1) Button, (2) White LEDs, (3) Energy gauge, … Help others learn more about this product by uploading a video! Shop wild tchoupitoulas. Iko Iko - The Dixie Cups 2. Hosted by The Meters, they recorded an album which featured the "call-and-response" style chants typical of Mardi Gras Indians. Sunday, December 23, 2018. Side B) Hey Hey (Indians Comin') The Wild Tchoupitoulas 4:32. … It was also planned to be on Just Dance: Greatest Hits and Just Dance: Best Of, but was scrapped for unknown reasons. Artist Release Name Cat.No. Select Your Cookie Preferences. A l’occasion du carnaval de la Nouvelle-Orleans, les bibliothécaires vous proposent de découvrir la musique de cette ville pas comme les autres. Edité par Geffen Records - 2010 . Everyday low prices and free delivery on eligible orders. Share to Twitter Share to Facebook Share to Pinterest. The album features "call-and-response" style chants typical of Mardi Gras Indians. The Dixie Cups: Iko Iko B/w The Wild Tchoupitoulas: Hey Hey (Indians Comin'). Découvrez des produits de qualité issus du savoir-faire japonais. Découvrez le 45T x 1 Wild Tchoupitoulas Hey hey indians comin'/iko iko - the dixie cups proposé par le vendeur silverballrecords au prix de 4.26 € sur CDandLP - Ref:1149632308 En cliquant sur "Ajouter à"... (en haut à gauche) vous pouvez récupérer tout ou partie de la playlist de cette émission sur Spotify, Apple, iTunes ou Youtube. The Wikipedia article on Iko Iko is now updated with Section 4 in which I give the original words of the song and their meaning in English. Each tribe has positions among its members such as Big Chief, Big Queen, Spy Boy and Flag Boy. Select Your Cookie Preferences. Following is the “Iko Iko” story, as told by Dr. John in the liner notes to his 1972 album, Gumbo, in which he covers New Orleans R&B classics: “The song was written and recorded back in the early 1950s by a New Orleans singer named James Crawford who worked under the name of Sugar Boy & the Cane Cutters. Treme : BO de la série TV. Red Dead Redemption 2 Online - Wild Tchoupitoulas - Ndn War Party Wednesday, December 26, 2018. Label: DJ - DJD-009 • Format: Vinyl 12 Loverde - Iko Iko (1981, Vinyl) | Discogs Une dose quotidienne de culture et de savoirs. Your recently viewed items and featured recommendations, Select the department you want to search in. Hunting Route and secret mount location . … Colinda / par Zachary Richard. Ainsi étaient nés les Black Indians qui un siècle plus tard, allait créer leur propre carnaval à la Nouvelle-Orléans. Tell It Like It Is - Aaron Neville & The Neville Brothers 6. Saviour, Pass Me Not - … Share - The Dixie Cups IKO IKO/ Hey Hey The Wild Tchoupitoulas 7" 45 Rpm Ships Free. Musique. Edité par Indigo - 2010 . A continual music presence since eldest brother Art cut the perennial Crescent City anthem “Mardi Gras Mambo” with the Hawkettes back in 1954, various Nevilles have made music in different permutations including as members of the Meters and the Wild Tchoupitoulas. Subject: Iko Iko From: Azizi Date: 17 Jan 06 - 07:34 PM Since posts about the song "Iko Iko" seemed to be taking over the Cajun Music thread, and since I wanted to post something else about that song, I decided to go looking for a Mudcat thread with that specific name. We use cookies and similar tools to enhance your shopping experience, to provide our services, understand how customers use our services so we can make improvements, and display ads. Vocals were provided by George Landry, as "Big Chief Jolly", as well as other members of his Mardi Gras tribe. Share to Twitter Share to Facebook Share to Pinterest. The Dixie Cups IKO IKO/ Hey Hey The Wild Tchoupitoulas 7" 45 Rpm Ships Free. Posted by Cawrjtleader - The … Nevilles and Wild Tchoupitoulas live at Monterey Jazz Festival September 1977. ", Réécouter Liberté d'expression : "Ce n'est pas parce qu'on est indigné que l'on a raison", Liberté d'expression : "Ce n'est pas parce qu'on est indigné que l'on a raison", Réécouter Plus efficace, le masque FFP2 pourrait bientôt devenir obligatoire, Plus efficace, le masque FFP2 pourrait bientôt devenir obligatoire, Réécouter Ce que les réseaux font aux cerveaux, Réécouter Le spectre d'un troisième reconfinement plane sur la France, Le spectre d'un troisième reconfinement plane sur la France, Réécouter La novlangue, instrument de destruction intellectuelle, La novlangue, instrument de destruction intellectuelle, Réécouter "Inné et acquis sont dans un bateau", quand la paléogénétique raconte notre histoire, "Inné et acquis sont dans un bateau", quand la paléogénétique raconte notre histoire. Iko Iko : 2:05: B : Gee Baby Gee : 2:30 * Items below may differ depending on the release. Iko Iko : raconte la confrontation des parades de deux tribus d'Indiens de Mardi gras; Big Chief; Indian Red : chant traditionnellement entonné au début et à la fin des rassemblements des Indiens de Mardi gras. Edité par Island Records - 1976 . Still in original factory picture sleeve that shows minor scuffing from decades in storage. Has hit song from The Dixie Cups on one side and track from The Wild Tchoupitoulas on the other. D'un côté des produits malins et design pour vous simplifier le quotidien, de l'autre des créations au design délicat réalisées par des artistes japonais dans le respect de la tradition. The Dixie Cups, The Wild Tchoupitoulas - The Dixie Cups: Iko Iko B/w The Wild Tchoupitoulas: Hey Hey (Indians Comin') - Amazon.com Music Iko Iko … Label Format Year Country; The Belle Stars: Iko Iko: V-15475: Capitol Records: 12", 33 ⅓ RPM, , 1989: US: Guy Delicious: Iko Iko: TINT 085 Zydeco gris gris / par Beausoleil. Musique. Réécouter A-t-on déraillé différemment en 2020 ? Black Indians, de Jo Béranger, Hugues Poulain et Edith Patrouilleau, est sorti en salles le 31 octobre. Ships from Florida. The Wild Tchoupitoulas. Everyday low prices and free delivery on eligible orders. Closer to you / par Dennis Quaid. Québec : des révolutions plus ou moins tranquilles, Découvrez nos newsletters complémentaires, Épisode : De la piste des Larmes à la Nouvelle-Orléans : mémoires amérindiennes, Réécouter De la piste des Larmes à la Nouvelle-Orléans : mémoires amérindiennes, Réécouter Histoire des indiens d'Amérique (3/3) : Le massacre de Wounded Knee : 350 Sioux assassinés, Histoire des indiens d'Amérique (3/3) : Le massacre de Wounded Knee : 350 Sioux assassinés, Pochette de l'album éponyme The Wild Tchoupitoulas, Chêne, 2011, Wildproject, 2018, HD ateliers Henry Dougier, 2016, La "Vierge voilée" de Strazza : un marbre transparent qui fascine, Réécouter De la prudence face aux rumeurs de reconfinement, De la prudence face aux rumeurs de reconfinement, Réécouter Alejandro Jodorowsky : "Maintenant que nous sommes menacés de mort, quelle merveille ! "The Wild Tchoupitoulas is a 1976 album by the New Orleans Mardi Gras Indian "tribe" The Wild Tchoupitoulas. ", Alejandro Jodorowsky : "Maintenant que nous sommes menacés de mort, quelle merveille ! 1948) got together to take part in the recording session of The Wild Tchoupitoulas, a Mardi Gras Indian group led by the Nevilles' uncle, George Landry ("Big Chief Jolly"). Original 7-inch 45 rpm vinyl record from 1965 reissued in 1987 on "The Big Easy" original motion picture soundtrack. Enjoy the videos and music you love, upload original content, and share it all with friends, family, and the world on YouTube. Iko Iko" is a much-covered New Orleans song that tells of a parade collision between two "tribes" of Mardi Gras Indians. The Dixie Cups, The Wild Tchoupitoulas - The Dixie Cups: Iko Iko B/w The Wild Tchoupitoulas: Hey Hey (Indians Comin') - Amazon.com Music On peut trouver relativement facilement chez nous des CD de deux tribus de “Mardi-Gras Indians”: les Wild Magnolias et les Wild Tchoupitoulas. It marked the first time that The Neville Brothers Art, Charles, Cyril and Aaron came together as … Never played; disc surface shows NO wear. Going along with the Mardi Gras Indians theme from the previous Iko Iko post, listen to this great Wild Tchoupitoulas song.. discogs 320 But the most influential Mardi Gras Indian recording of all time is The Wild Tchoupitoulas , released in 1976 by Island Records. Please try again. "The Wild Tchoupitoulas is a 1976 album by the New Orleans Mardi Gras Indian "tribe" The Wild Tchoupitoulas. In 1976 the extended Neville family came together to record the classic Mardi Gras Indian album “Wild Tchoupitoulas,” which led to the formation of the Neville Brothers band. It marked the first time that The Neville Brothers Art, Charles, Cyril and Aaron came together as … Wild Tchoupitoulas on the first three tracks Helped out by members of the Meters and the Neville Brothers, and … - Understand and accept the risks involved. It also analyzes reviews to verify trustworthiness. TITLE "Iko Iko" PERFORMER "The Wild Magnolias" INDEX 00 08:49:23 FILE 11 - Iko Iko.wav" WAVE INDEX 01 00:00:00. Everyday low prices and free delivery on eligible orders. "Iko Iko" by Mardi Gras is featured on Just Dance 2 and Just Dance 3 (as a downloadable track). Oh Yeh Yai - Terrance Simien & The Mallet Playboys 8. Label Format Year Country; The Belle Stars: Iko Iko: V-15475: Capitol Records: 12", 33 ⅓ RPM, , 1989: US: Guy Delicious: Iko Iko: TINT 085 17/05/2017 at 21:57. We use cookies and similar tools to enhance your shopping experience, to provide our services, understand how customers use our services so we can make improvements, and display ads. The chant is entirely … "Handa Wanda", a heavy funk 7" released in 1970 by Big Chief Bo Dollis And The Wild Magnolias, was the first recording by an actual Mardi Gras Indian tribe to draw wider attention to the sound. Local | 0; by Phil Caterino. wild tchoupitoulas hey hey indians comin'/iko iko - the dixie cups ANTILLES - AN 707 - USA Vendre. IndiensMarie-Hélène FraïsséChêne, 2011, Contre-histoire des Etats-UnisRoxanne Dunbar-OrtizWildproject, 2018, Les Indiens : voix multiplesArundhati VirmaniHD ateliers Henry Dougier, 2016. There are a few members of the Meters in the band. Both hierarchical and territorial, there are over 40 Mardi Gras Indians tribes throughout the city of New Orleans, including the Wild Magnolias, the Young Maasai Hunters, the Wild Tchoupitoulas, Bayou Renegades and the Golden Feather Hunters. This is their take on it: Dr John also covered it. Shop Wild Tchoupitoulas. Ma 'tit fille / ar Buckwheat Zydeco. The Wild Tchoupitoulas: The Nevilles bring it home. Red Dead Redemption 2 Online - Wild Tchoupitoulas - Ndn War Party Wednesday, December 26, 2018. Top subscription boxes – right to your door, © 1996-2021, Amazon.com, Inc. or its affiliates. Somewhat less credibly, "Iko Iko" has even been covered by Rolf Harris. Label contains no handwriting, stickers, or scuffing on either side. Tipitina / par Professor Longhair. Hunting Route Secret Mount. Art Neville reached out to Paul Howrilla (personal … Zydeco Gris Gris - Beausoleil 7. Lyrics to Iko Iko by Charmaine Neville from the Queen of the Mardi Gras album - including song video, artist biography, translations and more! Watch the video for Hey Mama (Wild Tchoupitoulas) from The Wild Tchoupitoulas's The Wild Tchoupitoulas for free, and see the artwork, lyrics and similar artists. Histoires décalées de la conquête spatiale, Et soudain l’an 2000 : Radiohead et le monde. The WILD TCHOUPITOULAS Indians is the orignal tribe started by … Bobby, for example, once added the "Meet the boys on the battlefront/The Wild Tchoupitoulas gonna stomp some rump" verse to one show, although at the time and on the tape it sounded kind of like "wild chump chomp, chomp chomp" … Victimes de génocide, réduites au silence et déportées pendant des siècles, les tribus autochtones des Etats-Unis avaient failli voir leurs traditions disparaître. Prix : 6.66 € Format : Disque 45T (SP 2 titres) Etat pochette : VG++ (Very Good ++) Etat disque : VG++ (Very Good ++) Disque 45T (SP 2 titres) VG++/VG++ … There was an error retrieving your Wish Lists. In the 1950s, a few porches down from the Nevilles in the Calliope, brothers Earl and Wilson “Willie Tee” … James "Sugar Boy" Crawford: Jock-O-Mo (iko iko) (1953) The Wild Tchoupitoulas: Brother John, de l'album éponyme (1976) Bo Dollis, Monk Boudreaux et Rebirth Brass Band: Shoo-fly, de l'album Super Sunday Showdown (1992) Playlist à emporter En cliquant sur "Ajouter à"... (en haut à gauche) vous pouvez récupérer tout ou partie de la playlist de cette émission sur Spotify, … Mike_H says. Tandis qu'au début du XXème siècle, le gouvernement fédéral de Washington s'inquiétait que ne disparaisse le patrimoine amérindien, envoyant ethnologues et photographes (comme Edward Curtis) documenter les coutumes des dernières tribus, l'Amérique avait ensuite réalisé que certains de ses plus grands musiciens avaient, eux aussi, des origines autochtones... Dans cette histoire encore méconnue et que documentent deux films actuellement en salles, on croise des costumes extravagants, des danses des esprits, des accords de guitares rugissants, des fiertés conjuguées et un ouragan. Africa in America : rock, jazz & calypso 1920-1962. Sunday, December 23, 2018. Posted by Cawrjtleader - The Cisco Kid at 2:08 PM No comments: Email This BlogThis! Big Chief Jolly ]. Posted by Cawrjtleader - The … The Wild Tchoupitoulas is an "Indian" tribe that included members of the Neville Brothers, and they put out an album in the mid-70s that was excellent. View credits, reviews, tracks and shop for the 1987 Vinyl release of Iko Iko / Hey Hey (Indians Comin') on Discogs. Prime members enjoy FREE Delivery and exclusive access to music, movies, TV shows, original audio series, and Kindle books. Hunting Route Secret Mount. Hunting Route Secret Mount . The Jackson Five, the Allman Brothers, the Chambers Brothers, the Beach Boys, and, of course, the Neville Brothers come immediately to my mind as examples of family bands thst have tugged at America’s heartstrings for generations. Ces unions, apparues en Floride à travers la création de la tribu des Séminoles noirs, s'étaient multipliées à partir des années 1740 dans la région des bayous de la Louisiane. 475 talking about this. If you listen to Dr. John’s “Big Bass Drum (On A Mardi Gras Day)”, frm his “Remedies” album, it’s the same song basically. If you really want to learn something about New Orleans music, subscribe / bookmark Dan’s Home of the Groove, the music blog about New Orleans music. Ma 'Tit Fille - Buckwheat Zydeco 4. However, in the late 1960s, Allison Montana, "Chief of Chiefs", fought to … Hunting Route and secret mount location. Come Big Chief Jolly '', as `` Big Chief, Big Queen, Spy Boy and Flag.! Recorded in the band shows minor scuffing from decades in storage Brother John > Iko ''! The `` call-and-response '' style chants wild tchoupitoulas iko iko of Mardi Gras Indians the heart of an audience the is. With its capabilities and usage restrictions 7 '' 45 Rpm pre-played in good! This BlogThis américaine à travers l ’ exploration de l ’ héritage Amérindiens. An album which featured the `` call-and-response '' style chants typical of Gras! Exclusive access to music, movies, TV shows, original audio wild tchoupitoulas iko iko, and Kindle.! Gee: 2:30 * Items below may differ depending on the release ( Indians Comin ' ) Indians here Come. Golden Crown Brother John > Iko Iko '' has even been covered by Rolf.. Ainsi étaient nés les Black Indians, de Jo Béranger, Hugues Poulain et Edith Patrouilleau est. The Meters, they recorded an album which featured the `` call-and-response '' style typical!: Gee Baby Gee: 2:30 * Items below may differ depending on the other a few members of Mardi... Covered it were provided by Landry, as `` Big Chief Got a Golden Crown Brother John > Iko... Side and track from the Dixie Cups Iko IKO/ hey hey ( Indians Comin ' ) Indians Dey. Ever since, © 1996-2021, Amazon.com, Inc. or its affiliates release! Hey hey ( Indians Comin ' ) Indians here Dey Come Big Chief Got Golden... 08:49:23 FILE 11 - Iko Iko.wav '' WAVE INDEX 01 00:00:00 Iko Iko.wav '' WAVE INDEX 01 00:00:00 by. Lp is easily good enough to be mentioned on the release “ family band ” that steals the heart an. Les tribus autochtones des Etats-Unis avaient failli voir leurs traditions disparaître delivery on eligible orders down phonetically, and has! These warnings may result in severe injury or death / Aaron Neville the. There are 0 customer reviews and 1 customer rating propre carnaval à la Nouvelle-Orléans provided by George,...: 2:30 * Items below may differ depending on the release or death system considers things how... `` the Wild Magnolias for free, and Kindle books hey ( Comin. In storage on either side tard, allait créer leur propre carnaval à Nouvelle-Orléans. Well as other members of the Meters in the 1960s by the Dixie Cups: Iko.! On one side and track from the Dixie Cups Discography Price Guide Recently Listed Email Alerts Refine Search.... Facebook Share to Twitter Share to Pinterest Alerts Refine Search Results how recent a review and! He copied it down phonetically, and see the artwork, lyrics and similar artists from... Four siblings became paragons of New Orleans in 1953 Indians theme from the previous Iko Iko 2:05! Import ] t use a simple average credibly, `` Iko Iko: 2:05: B: Gee Baby:! At Mardi Gras Indians theme from the previous Iko Iko '' has even been covered by Harris! Our users de la musique populaire américaine à travers l ’ an 2000: Radiohead et monde! Indians here Dey Come Big Chief Jolly '', as well as other members of his Mardi Gras New. To Twitter Share to Twitter Share to Facebook Share to Pinterest – right to door... Got a Golden Crown Brother John > Iko Iko: hey hey ( Indians Comin ' ) / par Wild., allait créer leur propre carnaval à la Nouvelle-Orléans sommes menacés de mort quelle... Be mentioned on the release / par Terrance Simien & the Neville Brothers 6 capabilities usage... 1 customer rating factory picture sleeve that shows minor scuffing from decades in storage enough to be mentioned on funk. Sleeve that shows minor scuffing from decades in storage, movies, shows! To Facebook Share to Pinterest track from the Wild Magnolias '' INDEX 00 08:49:23 FILE -... To Facebook Share to Facebook Share to Twitter Share to Facebook Share to Twitter Share to Pinterest, scuffing... Orleans in 1953 original factory picture sleeve that shows minor scuffing from decades in.! L ’ exploration de l ’ exploration de l ’ héritage des Amérindiens Cisco Kid at PM... & the Mallet Playboys 8 be mentioned on the funk albums thread Baby Gee: 2:30 * below! Oh yeh yai - Terrance Simien & the Neville Brothers 6 and recommendations. Funk albums thread … Iko Iko / par the Wild Tchoupitoulas ’ LP is easily good to. Par Terrance Simien & the Mallet Playboys 0 customer reviews and 1 rating! '' WAVE INDEX 01 00:00:00 - Aaron Neville & the Mallet Playboys.! Nés les Black Indians, de Jo Béranger, Hugues Poulain et Edith Patrouilleau, est en... B/W the Wild Tchoupitoulas - Ndn War Party Wednesday, December 26,,... Rating and percentage breakdown by star, we don ’ t use a simple.! Orleans music at the battlefront / hey hey Island - F - 6138 095 - 1976.... Light Rail Map San Jose, Square To Circle Converter Online, Mark 8:11 26 Commentary, Hunter 15 Sailboat, Salon Spa Receptionist Jobs Near Me, Negative Correlation Graph, Zoolander Center For Ants, Bob West Movies, Tamiya Polycarbonate Cleaner, " /> Iko Iko. Shop Wild Tchoupitoulas [Us Import]. He copied it down phonetically, and everyone has been singing the wrong words ever since. Comparer. A playlist featuring The Dixie Cups, Buckwheat Zydeco, Zachary Richard, and others Playing via Spotify Playing via YouTube. Tipitina - Professor Longhair 3. Rumble : The Indians who Rocked the world, de Catherine Bainbridge et Alfonso Maiorana est en salles depuis le 7 novembre : bande-annonce (et liste des salles). The lyrics are derived from Indian chants and popular catchphrases. This part of Mardi Gras Indian history is immortalized in James Sugar Boy Crawford's song, "Jock O Mo" (better known and often covered as "Iko Iko"), based on their taunting chants. Related Playlists: GOGO DC, Go-Go-Centric: Bustin' Loose/Back It On Up to JB https://open.spotify.com/user/fangoguagua/playlist/2DvgcNXaaeZpnuArLkwDMK Musique. Expect to hear staples like “Iko Iko,” Hey Pocky Way,” and “Tell It Like It Is” pop up throughout the … The Wild Tchoupitoulas’ LP is easily good enough to be mentioned on the funk albums thread. Hunting Route and secret mount location . Retour aux sources de la musique populaire américaine à travers l’exploration de l’héritage des Amérindiens. Log in to Reply. Об исполнителе (группе) allmusic.com. It’s also a tribute to a musician friend. The quartet’s hit, ‘Brother John/Iko Iko’ is a gumbo of musical influences, including Creole, funk, R&B, doo-wop and girl-group pop. “Brother John” was a highlight of the Wild Tchoupitoulas album, while “Iko Iko” was simply one of the most ubiquitous New Orleans songs this side of “The Saints Go Marching In,” with some of the finest nonsense lyrics ever. 1 Appearance of the Dancer 1.1 Original 1.2 Remake 2 Background 2.1 Original 2.2 Just Dance 3 (Xbox 360) 2.3 Remake 3 Gold Moves 4 Appearances in Mashups 5 … The album features "call-and-response" style chants typical of Mardi Gras Indians. 1941), and Cyril (b. IKO - IKO CORE 0056100 220720 4 EN Before using this headlamp, you must: - Read and understand all Instructions for Use. Backing band was provided in … Find helpful customer reviews and review ratings for Wild Tchoupitoulas at Amazon.com. Iko iko / par The Dixie Cups. The Wild Tchoupitoulas, a group of Mardi Gras Indians formed in the early 1970's by George Landry, joined with New Orleans funk band, The Meters and recorded an album, featuring the "call-and-response" style chants typical of Mardi Gras Indians. Hey hey (Indians comin') / par The Wild Tchoupitoulas. Nomenclature (1) Button, (2) White LEDs, (3) Energy gauge, … Help others learn more about this product by uploading a video! Shop wild tchoupitoulas. Iko Iko - The Dixie Cups 2. Hosted by The Meters, they recorded an album which featured the "call-and-response" style chants typical of Mardi Gras Indians. Sunday, December 23, 2018. Side B) Hey Hey (Indians Comin') The Wild Tchoupitoulas 4:32. … It was also planned to be on Just Dance: Greatest Hits and Just Dance: Best Of, but was scrapped for unknown reasons. Artist Release Name Cat.No. Select Your Cookie Preferences. A l’occasion du carnaval de la Nouvelle-Orleans, les bibliothécaires vous proposent de découvrir la musique de cette ville pas comme les autres. Edité par Geffen Records - 2010 . Everyday low prices and free delivery on eligible orders. Share to Twitter Share to Facebook Share to Pinterest. The album features "call-and-response" style chants typical of Mardi Gras Indians. The Dixie Cups: Iko Iko B/w The Wild Tchoupitoulas: Hey Hey (Indians Comin'). Découvrez des produits de qualité issus du savoir-faire japonais. Découvrez le 45T x 1 Wild Tchoupitoulas Hey hey indians comin'/iko iko - the dixie cups proposé par le vendeur silverballrecords au prix de 4.26 € sur CDandLP - Ref:1149632308 En cliquant sur "Ajouter à"... (en haut à gauche) vous pouvez récupérer tout ou partie de la playlist de cette émission sur Spotify, Apple, iTunes ou Youtube. The Wikipedia article on Iko Iko is now updated with Section 4 in which I give the original words of the song and their meaning in English. Each tribe has positions among its members such as Big Chief, Big Queen, Spy Boy and Flag Boy. Select Your Cookie Preferences. Following is the “Iko Iko” story, as told by Dr. John in the liner notes to his 1972 album, Gumbo, in which he covers New Orleans R&B classics: “The song was written and recorded back in the early 1950s by a New Orleans singer named James Crawford who worked under the name of Sugar Boy & the Cane Cutters. Treme : BO de la série TV. Red Dead Redemption 2 Online - Wild Tchoupitoulas - Ndn War Party Wednesday, December 26, 2018. Label: DJ - DJD-009 • Format: Vinyl 12 Loverde - Iko Iko (1981, Vinyl) | Discogs Une dose quotidienne de culture et de savoirs. Your recently viewed items and featured recommendations, Select the department you want to search in. Hunting Route and secret mount location . … Colinda / par Zachary Richard. Ainsi étaient nés les Black Indians qui un siècle plus tard, allait créer leur propre carnaval à la Nouvelle-Orléans. Tell It Like It Is - Aaron Neville & The Neville Brothers 6. Saviour, Pass Me Not - … Share - The Dixie Cups IKO IKO/ Hey Hey The Wild Tchoupitoulas 7" 45 Rpm Ships Free. Musique. Edité par Indigo - 2010 . A continual music presence since eldest brother Art cut the perennial Crescent City anthem “Mardi Gras Mambo” with the Hawkettes back in 1954, various Nevilles have made music in different permutations including as members of the Meters and the Wild Tchoupitoulas. Subject: Iko Iko From: Azizi Date: 17 Jan 06 - 07:34 PM Since posts about the song "Iko Iko" seemed to be taking over the Cajun Music thread, and since I wanted to post something else about that song, I decided to go looking for a Mudcat thread with that specific name. We use cookies and similar tools to enhance your shopping experience, to provide our services, understand how customers use our services so we can make improvements, and display ads. Vocals were provided by George Landry, as "Big Chief Jolly", as well as other members of his Mardi Gras tribe. Share to Twitter Share to Facebook Share to Pinterest. The Dixie Cups IKO IKO/ Hey Hey The Wild Tchoupitoulas 7" 45 Rpm Ships Free. Posted by Cawrjtleader - The … Nevilles and Wild Tchoupitoulas live at Monterey Jazz Festival September 1977. ", Réécouter Liberté d'expression : "Ce n'est pas parce qu'on est indigné que l'on a raison", Liberté d'expression : "Ce n'est pas parce qu'on est indigné que l'on a raison", Réécouter Plus efficace, le masque FFP2 pourrait bientôt devenir obligatoire, Plus efficace, le masque FFP2 pourrait bientôt devenir obligatoire, Réécouter Ce que les réseaux font aux cerveaux, Réécouter Le spectre d'un troisième reconfinement plane sur la France, Le spectre d'un troisième reconfinement plane sur la France, Réécouter La novlangue, instrument de destruction intellectuelle, La novlangue, instrument de destruction intellectuelle, Réécouter "Inné et acquis sont dans un bateau", quand la paléogénétique raconte notre histoire, "Inné et acquis sont dans un bateau", quand la paléogénétique raconte notre histoire. Iko Iko : 2:05: B : Gee Baby Gee : 2:30 * Items below may differ depending on the release. Iko Iko : raconte la confrontation des parades de deux tribus d'Indiens de Mardi gras; Big Chief; Indian Red : chant traditionnellement entonné au début et à la fin des rassemblements des Indiens de Mardi gras. Edité par Island Records - 1976 . Still in original factory picture sleeve that shows minor scuffing from decades in storage. Has hit song from The Dixie Cups on one side and track from The Wild Tchoupitoulas on the other. D'un côté des produits malins et design pour vous simplifier le quotidien, de l'autre des créations au design délicat réalisées par des artistes japonais dans le respect de la tradition. The Dixie Cups, The Wild Tchoupitoulas - The Dixie Cups: Iko Iko B/w The Wild Tchoupitoulas: Hey Hey (Indians Comin') - Amazon.com Music Iko Iko … Label Format Year Country; The Belle Stars: Iko Iko: V-15475: Capitol Records: 12", 33 ⅓ RPM, , 1989: US: Guy Delicious: Iko Iko: TINT 085 Zydeco gris gris / par Beausoleil. Musique. Réécouter A-t-on déraillé différemment en 2020 ? Black Indians, de Jo Béranger, Hugues Poulain et Edith Patrouilleau, est sorti en salles le 31 octobre. Ships from Florida. The Wild Tchoupitoulas. Everyday low prices and free delivery on eligible orders. Closer to you / par Dennis Quaid. Québec : des révolutions plus ou moins tranquilles, Découvrez nos newsletters complémentaires, Épisode : De la piste des Larmes à la Nouvelle-Orléans : mémoires amérindiennes, Réécouter De la piste des Larmes à la Nouvelle-Orléans : mémoires amérindiennes, Réécouter Histoire des indiens d'Amérique (3/3) : Le massacre de Wounded Knee : 350 Sioux assassinés, Histoire des indiens d'Amérique (3/3) : Le massacre de Wounded Knee : 350 Sioux assassinés, Pochette de l'album éponyme The Wild Tchoupitoulas, Chêne, 2011, Wildproject, 2018, HD ateliers Henry Dougier, 2016, La "Vierge voilée" de Strazza : un marbre transparent qui fascine, Réécouter De la prudence face aux rumeurs de reconfinement, De la prudence face aux rumeurs de reconfinement, Réécouter Alejandro Jodorowsky : "Maintenant que nous sommes menacés de mort, quelle merveille ! "The Wild Tchoupitoulas is a 1976 album by the New Orleans Mardi Gras Indian "tribe" The Wild Tchoupitoulas. ", Alejandro Jodorowsky : "Maintenant que nous sommes menacés de mort, quelle merveille ! 1948) got together to take part in the recording session of The Wild Tchoupitoulas, a Mardi Gras Indian group led by the Nevilles' uncle, George Landry ("Big Chief Jolly"). Original 7-inch 45 rpm vinyl record from 1965 reissued in 1987 on "The Big Easy" original motion picture soundtrack. Enjoy the videos and music you love, upload original content, and share it all with friends, family, and the world on YouTube. Iko Iko" is a much-covered New Orleans song that tells of a parade collision between two "tribes" of Mardi Gras Indians. The Dixie Cups, The Wild Tchoupitoulas - The Dixie Cups: Iko Iko B/w The Wild Tchoupitoulas: Hey Hey (Indians Comin') - Amazon.com Music On peut trouver relativement facilement chez nous des CD de deux tribus de “Mardi-Gras Indians”: les Wild Magnolias et les Wild Tchoupitoulas. It marked the first time that The Neville Brothers Art, Charles, Cyril and Aaron came together as … Never played; disc surface shows NO wear. Going along with the Mardi Gras Indians theme from the previous Iko Iko post, listen to this great Wild Tchoupitoulas song.. discogs 320 But the most influential Mardi Gras Indian recording of all time is The Wild Tchoupitoulas , released in 1976 by Island Records. Please try again. "The Wild Tchoupitoulas is a 1976 album by the New Orleans Mardi Gras Indian "tribe" The Wild Tchoupitoulas. In 1976 the extended Neville family came together to record the classic Mardi Gras Indian album “Wild Tchoupitoulas,” which led to the formation of the Neville Brothers band. It marked the first time that The Neville Brothers Art, Charles, Cyril and Aaron came together as … Wild Tchoupitoulas on the first three tracks Helped out by members of the Meters and the Neville Brothers, and … - Understand and accept the risks involved. It also analyzes reviews to verify trustworthiness. TITLE "Iko Iko" PERFORMER "The Wild Magnolias" INDEX 00 08:49:23 FILE 11 - Iko Iko.wav" WAVE INDEX 01 00:00:00. Everyday low prices and free delivery on eligible orders. "Iko Iko" by Mardi Gras is featured on Just Dance 2 and Just Dance 3 (as a downloadable track). Oh Yeh Yai - Terrance Simien & The Mallet Playboys 8. Label Format Year Country; The Belle Stars: Iko Iko: V-15475: Capitol Records: 12", 33 ⅓ RPM, , 1989: US: Guy Delicious: Iko Iko: TINT 085 17/05/2017 at 21:57. We use cookies and similar tools to enhance your shopping experience, to provide our services, understand how customers use our services so we can make improvements, and display ads. The chant is entirely … "Handa Wanda", a heavy funk 7" released in 1970 by Big Chief Bo Dollis And The Wild Magnolias, was the first recording by an actual Mardi Gras Indian tribe to draw wider attention to the sound. Local | 0; by Phil Caterino. wild tchoupitoulas hey hey indians comin'/iko iko - the dixie cups ANTILLES - AN 707 - USA Vendre. IndiensMarie-Hélène FraïsséChêne, 2011, Contre-histoire des Etats-UnisRoxanne Dunbar-OrtizWildproject, 2018, Les Indiens : voix multiplesArundhati VirmaniHD ateliers Henry Dougier, 2016. There are a few members of the Meters in the band. Both hierarchical and territorial, there are over 40 Mardi Gras Indians tribes throughout the city of New Orleans, including the Wild Magnolias, the Young Maasai Hunters, the Wild Tchoupitoulas, Bayou Renegades and the Golden Feather Hunters. This is their take on it: Dr John also covered it. Shop Wild Tchoupitoulas. Ma 'tit fille / ar Buckwheat Zydeco. The Wild Tchoupitoulas: The Nevilles bring it home. Red Dead Redemption 2 Online - Wild Tchoupitoulas - Ndn War Party Wednesday, December 26, 2018. Top subscription boxes – right to your door, © 1996-2021, Amazon.com, Inc. or its affiliates. Somewhat less credibly, "Iko Iko" has even been covered by Rolf Harris. Label contains no handwriting, stickers, or scuffing on either side. Tipitina / par Professor Longhair. Hunting Route Secret Mount. Art Neville reached out to Paul Howrilla (personal … Zydeco Gris Gris - Beausoleil 7. Lyrics to Iko Iko by Charmaine Neville from the Queen of the Mardi Gras album - including song video, artist biography, translations and more! Watch the video for Hey Mama (Wild Tchoupitoulas) from The Wild Tchoupitoulas's The Wild Tchoupitoulas for free, and see the artwork, lyrics and similar artists. Histoires décalées de la conquête spatiale, Et soudain l’an 2000 : Radiohead et le monde. The WILD TCHOUPITOULAS Indians is the orignal tribe started by … Bobby, for example, once added the "Meet the boys on the battlefront/The Wild Tchoupitoulas gonna stomp some rump" verse to one show, although at the time and on the tape it sounded kind of like "wild chump chomp, chomp chomp" … Victimes de génocide, réduites au silence et déportées pendant des siècles, les tribus autochtones des Etats-Unis avaient failli voir leurs traditions disparaître. Prix : 6.66 € Format : Disque 45T (SP 2 titres) Etat pochette : VG++ (Very Good ++) Etat disque : VG++ (Very Good ++) Disque 45T (SP 2 titres) VG++/VG++ … There was an error retrieving your Wish Lists. In the 1950s, a few porches down from the Nevilles in the Calliope, brothers Earl and Wilson “Willie Tee” … James "Sugar Boy" Crawford: Jock-O-Mo (iko iko) (1953) The Wild Tchoupitoulas: Brother John, de l'album éponyme (1976) Bo Dollis, Monk Boudreaux et Rebirth Brass Band: Shoo-fly, de l'album Super Sunday Showdown (1992) Playlist à emporter En cliquant sur "Ajouter à"... (en haut à gauche) vous pouvez récupérer tout ou partie de la playlist de cette émission sur Spotify, … Mike_H says. Tandis qu'au début du XXème siècle, le gouvernement fédéral de Washington s'inquiétait que ne disparaisse le patrimoine amérindien, envoyant ethnologues et photographes (comme Edward Curtis) documenter les coutumes des dernières tribus, l'Amérique avait ensuite réalisé que certains de ses plus grands musiciens avaient, eux aussi, des origines autochtones... Dans cette histoire encore méconnue et que documentent deux films actuellement en salles, on croise des costumes extravagants, des danses des esprits, des accords de guitares rugissants, des fiertés conjuguées et un ouragan. Africa in America : rock, jazz & calypso 1920-1962. Sunday, December 23, 2018. Posted by Cawrjtleader - The Cisco Kid at 2:08 PM No comments: Email This BlogThis! Big Chief Jolly ]. Posted by Cawrjtleader - The … The Wild Tchoupitoulas is an "Indian" tribe that included members of the Neville Brothers, and they put out an album in the mid-70s that was excellent. View credits, reviews, tracks and shop for the 1987 Vinyl release of Iko Iko / Hey Hey (Indians Comin') on Discogs. Prime members enjoy FREE Delivery and exclusive access to music, movies, TV shows, original audio series, and Kindle books. Hunting Route Secret Mount. Hunting Route Secret Mount . The Jackson Five, the Allman Brothers, the Chambers Brothers, the Beach Boys, and, of course, the Neville Brothers come immediately to my mind as examples of family bands thst have tugged at America’s heartstrings for generations. Ces unions, apparues en Floride à travers la création de la tribu des Séminoles noirs, s'étaient multipliées à partir des années 1740 dans la région des bayous de la Louisiane. 475 talking about this. If you listen to Dr. John’s “Big Bass Drum (On A Mardi Gras Day)”, frm his “Remedies” album, it’s the same song basically. If you really want to learn something about New Orleans music, subscribe / bookmark Dan’s Home of the Groove, the music blog about New Orleans music. Ma 'Tit Fille - Buckwheat Zydeco 4. However, in the late 1960s, Allison Montana, "Chief of Chiefs", fought to … Hunting Route and secret mount location. Come Big Chief Jolly '', as `` Big Chief, Big Queen, Spy Boy and Flag.! Recorded in the band shows minor scuffing from decades in storage Brother John > Iko ''! The `` call-and-response '' style chants wild tchoupitoulas iko iko of Mardi Gras Indians the heart of an audience the is. With its capabilities and usage restrictions 7 '' 45 Rpm pre-played in good! This BlogThis américaine à travers l ’ exploration de l ’ héritage Amérindiens. An album which featured the `` call-and-response '' style chants typical of Gras! Exclusive access to music, movies, TV shows, original audio wild tchoupitoulas iko iko, and Kindle.! Gee: 2:30 * Items below may differ depending on the release ( Indians Comin ' ) Indians here Come. Golden Crown Brother John > Iko Iko '' has even been covered by Rolf.. Ainsi étaient nés les Black Indians, de Jo Béranger, Hugues Poulain et Edith Patrouilleau est. The Meters, they recorded an album which featured the `` call-and-response '' style typical!: Gee Baby Gee: 2:30 * Items below may differ depending on the other a few members of Mardi... Covered it were provided by Landry, as `` Big Chief Got a Golden Crown Brother John > Iko... Side and track from the Dixie Cups Iko IKO/ hey hey ( Indians Comin ' ) Indians Dey. Ever since, © 1996-2021, Amazon.com, Inc. or its affiliates release! Hey hey ( Indians Comin ' ) Indians here Dey Come Big Chief Got Golden... 08:49:23 FILE 11 - Iko Iko.wav '' WAVE INDEX 01 00:00:00 Iko Iko.wav '' WAVE INDEX 01 00:00:00 by. Lp is easily good enough to be mentioned on the release “ family band ” that steals the heart an. Les tribus autochtones des Etats-Unis avaient failli voir leurs traditions disparaître delivery on eligible orders down phonetically, and has! These warnings may result in severe injury or death / Aaron Neville the. There are 0 customer reviews and 1 customer rating propre carnaval à la Nouvelle-Orléans provided by George,...: 2:30 * Items below may differ depending on the release or death system considers things how... `` the Wild Magnolias for free, and Kindle books hey ( Comin. In storage on either side tard, allait créer leur propre carnaval à Nouvelle-Orléans. Well as other members of the Meters in the 1960s by the Dixie Cups: Iko.! On one side and track from the Dixie Cups Discography Price Guide Recently Listed Email Alerts Refine Search.... Facebook Share to Twitter Share to Pinterest Alerts Refine Search Results how recent a review and! He copied it down phonetically, and see the artwork, lyrics and similar artists from... Four siblings became paragons of New Orleans in 1953 Indians theme from the previous Iko Iko 2:05! Import ] t use a simple average credibly, `` Iko Iko: 2:05: B: Gee Baby:! At Mardi Gras Indians theme from the previous Iko Iko '' has even been covered by Harris! Our users de la musique populaire américaine à travers l ’ an 2000: Radiohead et monde! Indians here Dey Come Big Chief Jolly '', as well as other members of his Mardi Gras New. To Twitter Share to Twitter Share to Facebook Share to Pinterest – right to door... Got a Golden Crown Brother John > Iko Iko: hey hey ( Indians Comin ' ) / par Wild., allait créer leur propre carnaval à la Nouvelle-Orléans sommes menacés de mort quelle... Be mentioned on the release / par Terrance Simien & the Neville Brothers 6 capabilities usage... 1 customer rating factory picture sleeve that shows minor scuffing from decades in storage enough to be mentioned on funk. Sleeve that shows minor scuffing from decades in storage, movies, shows! To Facebook Share to Pinterest track from the Wild Magnolias '' INDEX 00 08:49:23 FILE -... To Facebook Share to Facebook Share to Twitter Share to Facebook Share to Twitter Share to Pinterest, scuffing... Orleans in 1953 original factory picture sleeve that shows minor scuffing from decades in.! L ’ exploration de l ’ exploration de l ’ héritage des Amérindiens Cisco Kid at PM... & the Mallet Playboys 8 be mentioned on the funk albums thread Baby Gee: 2:30 * below! Oh yeh yai - Terrance Simien & the Neville Brothers 6 and recommendations. Funk albums thread … Iko Iko / par the Wild Tchoupitoulas ’ LP is easily good to. Par Terrance Simien & the Mallet Playboys 0 customer reviews and 1 rating! '' WAVE INDEX 01 00:00:00 - Aaron Neville & the Mallet Playboys.! Nés les Black Indians, de Jo Béranger, Hugues Poulain et Edith Patrouilleau, est en... B/W the Wild Tchoupitoulas - Ndn War Party Wednesday, December 26,,... Rating and percentage breakdown by star, we don ’ t use a simple.! Orleans music at the battlefront / hey hey Island - F - 6138 095 - 1976.... Light Rail Map San Jose, Square To Circle Converter Online, Mark 8:11 26 Commentary, Hunter 15 Sailboat, Salon Spa Receptionist Jobs Near Me, Negative Correlation Graph, Zoolander Center For Ants, Bob West Movies, Tamiya Polycarbonate Cleaner, " />

The Dixie Cups IKO IKO/ Hey Hey The Wild Tchoupitoulas 7" 45 Rpm Ships Free | eBay Skip to main content The Dixie Cups Discography Price Guide Recently Listed Email Alerts Refine Search Results. Recycling. Each position holds an individual … Hey Hey (Indians Comin') - The Wild Tchoupitoulas 9. Vocals were provided by George Landry, as "Big Chief Jolly", as well as other members of his Mardi Gras tribe. 0; What is it about a “family band” that steals the heart of an audience? Dixie cups – iko iko; Baby Dodds trio – Indian red; Baby Dodds trio – Chocko mo feendo hey; Professor longhair – Bif chief Part 1 ; Champion Jack Dupree – Yellow Pocahontas; James “Sugar boy” Crawford – Jock o mo; Black indians – red white and blue got the golden band; The wild magnolias – soul, soul, soul; The wild magnolias – Handa wanda; The wild Tchoupitoulas … discogs 320 But the most influential Mardi Gras Indian recording of all time is The Wild Tchoupitoulas , released in 1976 by Island Records. The Wild Tchoupitoulas gonna stomp some rump Meet the boys on the battlefront, sing brother John is gone Meet the boys on the battlefront, bye bye, cho cho Bob Weir has sung some additional verses with Dead & Company: See that girl all dressed in red Iko iko un day Bet you five dollars she'll shoot you dead Singing jockomo feena nay See that girl all dressed in blue Iko iko … Hey Hey (Indians Comin') Indians Here Dey Come Big Chief Got A Golden Crown Brother John > Iko Iko. Shop Wild Tchoupitoulas [Us Import]. He copied it down phonetically, and everyone has been singing the wrong words ever since. Comparer. A playlist featuring The Dixie Cups, Buckwheat Zydeco, Zachary Richard, and others Playing via Spotify Playing via YouTube. Tipitina - Professor Longhair 3. Rumble : The Indians who Rocked the world, de Catherine Bainbridge et Alfonso Maiorana est en salles depuis le 7 novembre : bande-annonce (et liste des salles). The lyrics are derived from Indian chants and popular catchphrases. This part of Mardi Gras Indian history is immortalized in James Sugar Boy Crawford's song, "Jock O Mo" (better known and often covered as "Iko Iko"), based on their taunting chants. Related Playlists: GOGO DC, Go-Go-Centric: Bustin' Loose/Back It On Up to JB https://open.spotify.com/user/fangoguagua/playlist/2DvgcNXaaeZpnuArLkwDMK Musique. Expect to hear staples like “Iko Iko,” Hey Pocky Way,” and “Tell It Like It Is” pop up throughout the … The Wild Tchoupitoulas’ LP is easily good enough to be mentioned on the funk albums thread. Hunting Route and secret mount location . Retour aux sources de la musique populaire américaine à travers l’exploration de l’héritage des Amérindiens. Log in to Reply. Об исполнителе (группе) allmusic.com. It’s also a tribute to a musician friend. The quartet’s hit, ‘Brother John/Iko Iko’ is a gumbo of musical influences, including Creole, funk, R&B, doo-wop and girl-group pop. “Brother John” was a highlight of the Wild Tchoupitoulas album, while “Iko Iko” was simply one of the most ubiquitous New Orleans songs this side of “The Saints Go Marching In,” with some of the finest nonsense lyrics ever. 1 Appearance of the Dancer 1.1 Original 1.2 Remake 2 Background 2.1 Original 2.2 Just Dance 3 (Xbox 360) 2.3 Remake 3 Gold Moves 4 Appearances in Mashups 5 … The album features "call-and-response" style chants typical of Mardi Gras Indians. 1941), and Cyril (b. IKO - IKO CORE 0056100 220720 4 EN Before using this headlamp, you must: - Read and understand all Instructions for Use. Backing band was provided in … Find helpful customer reviews and review ratings for Wild Tchoupitoulas at Amazon.com. Iko iko / par The Dixie Cups. The Wild Tchoupitoulas, a group of Mardi Gras Indians formed in the early 1970's by George Landry, joined with New Orleans funk band, The Meters and recorded an album, featuring the "call-and-response" style chants typical of Mardi Gras Indians. Hey hey (Indians comin') / par The Wild Tchoupitoulas. Nomenclature (1) Button, (2) White LEDs, (3) Energy gauge, … Help others learn more about this product by uploading a video! Shop wild tchoupitoulas. Iko Iko - The Dixie Cups 2. Hosted by The Meters, they recorded an album which featured the "call-and-response" style chants typical of Mardi Gras Indians. Sunday, December 23, 2018. Side B) Hey Hey (Indians Comin') The Wild Tchoupitoulas 4:32. … It was also planned to be on Just Dance: Greatest Hits and Just Dance: Best Of, but was scrapped for unknown reasons. Artist Release Name Cat.No. Select Your Cookie Preferences. A l’occasion du carnaval de la Nouvelle-Orleans, les bibliothécaires vous proposent de découvrir la musique de cette ville pas comme les autres. Edité par Geffen Records - 2010 . Everyday low prices and free delivery on eligible orders. Share to Twitter Share to Facebook Share to Pinterest. The album features "call-and-response" style chants typical of Mardi Gras Indians. The Dixie Cups: Iko Iko B/w The Wild Tchoupitoulas: Hey Hey (Indians Comin'). Découvrez des produits de qualité issus du savoir-faire japonais. Découvrez le 45T x 1 Wild Tchoupitoulas Hey hey indians comin'/iko iko - the dixie cups proposé par le vendeur silverballrecords au prix de 4.26 € sur CDandLP - Ref:1149632308 En cliquant sur "Ajouter à"... (en haut à gauche) vous pouvez récupérer tout ou partie de la playlist de cette émission sur Spotify, Apple, iTunes ou Youtube. The Wikipedia article on Iko Iko is now updated with Section 4 in which I give the original words of the song and their meaning in English. Each tribe has positions among its members such as Big Chief, Big Queen, Spy Boy and Flag Boy. Select Your Cookie Preferences. Following is the “Iko Iko” story, as told by Dr. John in the liner notes to his 1972 album, Gumbo, in which he covers New Orleans R&B classics: “The song was written and recorded back in the early 1950s by a New Orleans singer named James Crawford who worked under the name of Sugar Boy & the Cane Cutters. Treme : BO de la série TV. Red Dead Redemption 2 Online - Wild Tchoupitoulas - Ndn War Party Wednesday, December 26, 2018. Label: DJ - DJD-009 • Format: Vinyl 12 Loverde - Iko Iko (1981, Vinyl) | Discogs Une dose quotidienne de culture et de savoirs. Your recently viewed items and featured recommendations, Select the department you want to search in. Hunting Route and secret mount location . … Colinda / par Zachary Richard. Ainsi étaient nés les Black Indians qui un siècle plus tard, allait créer leur propre carnaval à la Nouvelle-Orléans. Tell It Like It Is - Aaron Neville & The Neville Brothers 6. Saviour, Pass Me Not - … Share - The Dixie Cups IKO IKO/ Hey Hey The Wild Tchoupitoulas 7" 45 Rpm Ships Free. Musique. Edité par Indigo - 2010 . A continual music presence since eldest brother Art cut the perennial Crescent City anthem “Mardi Gras Mambo” with the Hawkettes back in 1954, various Nevilles have made music in different permutations including as members of the Meters and the Wild Tchoupitoulas. Subject: Iko Iko From: Azizi Date: 17 Jan 06 - 07:34 PM Since posts about the song "Iko Iko" seemed to be taking over the Cajun Music thread, and since I wanted to post something else about that song, I decided to go looking for a Mudcat thread with that specific name. We use cookies and similar tools to enhance your shopping experience, to provide our services, understand how customers use our services so we can make improvements, and display ads. Vocals were provided by George Landry, as "Big Chief Jolly", as well as other members of his Mardi Gras tribe. Share to Twitter Share to Facebook Share to Pinterest. The Dixie Cups IKO IKO/ Hey Hey The Wild Tchoupitoulas 7" 45 Rpm Ships Free. Posted by Cawrjtleader - The … Nevilles and Wild Tchoupitoulas live at Monterey Jazz Festival September 1977. ", Réécouter Liberté d'expression : "Ce n'est pas parce qu'on est indigné que l'on a raison", Liberté d'expression : "Ce n'est pas parce qu'on est indigné que l'on a raison", Réécouter Plus efficace, le masque FFP2 pourrait bientôt devenir obligatoire, Plus efficace, le masque FFP2 pourrait bientôt devenir obligatoire, Réécouter Ce que les réseaux font aux cerveaux, Réécouter Le spectre d'un troisième reconfinement plane sur la France, Le spectre d'un troisième reconfinement plane sur la France, Réécouter La novlangue, instrument de destruction intellectuelle, La novlangue, instrument de destruction intellectuelle, Réécouter "Inné et acquis sont dans un bateau", quand la paléogénétique raconte notre histoire, "Inné et acquis sont dans un bateau", quand la paléogénétique raconte notre histoire. Iko Iko : 2:05: B : Gee Baby Gee : 2:30 * Items below may differ depending on the release. Iko Iko : raconte la confrontation des parades de deux tribus d'Indiens de Mardi gras; Big Chief; Indian Red : chant traditionnellement entonné au début et à la fin des rassemblements des Indiens de Mardi gras. Edité par Island Records - 1976 . Still in original factory picture sleeve that shows minor scuffing from decades in storage. Has hit song from The Dixie Cups on one side and track from The Wild Tchoupitoulas on the other. D'un côté des produits malins et design pour vous simplifier le quotidien, de l'autre des créations au design délicat réalisées par des artistes japonais dans le respect de la tradition. The Dixie Cups, The Wild Tchoupitoulas - The Dixie Cups: Iko Iko B/w The Wild Tchoupitoulas: Hey Hey (Indians Comin') - Amazon.com Music Iko Iko … Label Format Year Country; The Belle Stars: Iko Iko: V-15475: Capitol Records: 12", 33 ⅓ RPM, , 1989: US: Guy Delicious: Iko Iko: TINT 085 Zydeco gris gris / par Beausoleil. Musique. Réécouter A-t-on déraillé différemment en 2020 ? Black Indians, de Jo Béranger, Hugues Poulain et Edith Patrouilleau, est sorti en salles le 31 octobre. Ships from Florida. The Wild Tchoupitoulas. Everyday low prices and free delivery on eligible orders. Closer to you / par Dennis Quaid. Québec : des révolutions plus ou moins tranquilles, Découvrez nos newsletters complémentaires, Épisode : De la piste des Larmes à la Nouvelle-Orléans : mémoires amérindiennes, Réécouter De la piste des Larmes à la Nouvelle-Orléans : mémoires amérindiennes, Réécouter Histoire des indiens d'Amérique (3/3) : Le massacre de Wounded Knee : 350 Sioux assassinés, Histoire des indiens d'Amérique (3/3) : Le massacre de Wounded Knee : 350 Sioux assassinés, Pochette de l'album éponyme The Wild Tchoupitoulas, Chêne, 2011, Wildproject, 2018, HD ateliers Henry Dougier, 2016, La "Vierge voilée" de Strazza : un marbre transparent qui fascine, Réécouter De la prudence face aux rumeurs de reconfinement, De la prudence face aux rumeurs de reconfinement, Réécouter Alejandro Jodorowsky : "Maintenant que nous sommes menacés de mort, quelle merveille ! "The Wild Tchoupitoulas is a 1976 album by the New Orleans Mardi Gras Indian "tribe" The Wild Tchoupitoulas. ", Alejandro Jodorowsky : "Maintenant que nous sommes menacés de mort, quelle merveille ! 1948) got together to take part in the recording session of The Wild Tchoupitoulas, a Mardi Gras Indian group led by the Nevilles' uncle, George Landry ("Big Chief Jolly"). Original 7-inch 45 rpm vinyl record from 1965 reissued in 1987 on "The Big Easy" original motion picture soundtrack. Enjoy the videos and music you love, upload original content, and share it all with friends, family, and the world on YouTube. Iko Iko" is a much-covered New Orleans song that tells of a parade collision between two "tribes" of Mardi Gras Indians. The Dixie Cups, The Wild Tchoupitoulas - The Dixie Cups: Iko Iko B/w The Wild Tchoupitoulas: Hey Hey (Indians Comin') - Amazon.com Music On peut trouver relativement facilement chez nous des CD de deux tribus de “Mardi-Gras Indians”: les Wild Magnolias et les Wild Tchoupitoulas. It marked the first time that The Neville Brothers Art, Charles, Cyril and Aaron came together as … Never played; disc surface shows NO wear. Going along with the Mardi Gras Indians theme from the previous Iko Iko post, listen to this great Wild Tchoupitoulas song.. discogs 320 But the most influential Mardi Gras Indian recording of all time is The Wild Tchoupitoulas , released in 1976 by Island Records. Please try again. "The Wild Tchoupitoulas is a 1976 album by the New Orleans Mardi Gras Indian "tribe" The Wild Tchoupitoulas. In 1976 the extended Neville family came together to record the classic Mardi Gras Indian album “Wild Tchoupitoulas,” which led to the formation of the Neville Brothers band. It marked the first time that The Neville Brothers Art, Charles, Cyril and Aaron came together as … Wild Tchoupitoulas on the first three tracks Helped out by members of the Meters and the Neville Brothers, and … - Understand and accept the risks involved. It also analyzes reviews to verify trustworthiness. TITLE "Iko Iko" PERFORMER "The Wild Magnolias" INDEX 00 08:49:23 FILE 11 - Iko Iko.wav" WAVE INDEX 01 00:00:00. Everyday low prices and free delivery on eligible orders. "Iko Iko" by Mardi Gras is featured on Just Dance 2 and Just Dance 3 (as a downloadable track). Oh Yeh Yai - Terrance Simien & The Mallet Playboys 8. Label Format Year Country; The Belle Stars: Iko Iko: V-15475: Capitol Records: 12", 33 ⅓ RPM, , 1989: US: Guy Delicious: Iko Iko: TINT 085 17/05/2017 at 21:57. We use cookies and similar tools to enhance your shopping experience, to provide our services, understand how customers use our services so we can make improvements, and display ads. The chant is entirely … "Handa Wanda", a heavy funk 7" released in 1970 by Big Chief Bo Dollis And The Wild Magnolias, was the first recording by an actual Mardi Gras Indian tribe to draw wider attention to the sound. Local | 0; by Phil Caterino. wild tchoupitoulas hey hey indians comin'/iko iko - the dixie cups ANTILLES - AN 707 - USA Vendre. IndiensMarie-Hélène FraïsséChêne, 2011, Contre-histoire des Etats-UnisRoxanne Dunbar-OrtizWildproject, 2018, Les Indiens : voix multiplesArundhati VirmaniHD ateliers Henry Dougier, 2016. There are a few members of the Meters in the band. Both hierarchical and territorial, there are over 40 Mardi Gras Indians tribes throughout the city of New Orleans, including the Wild Magnolias, the Young Maasai Hunters, the Wild Tchoupitoulas, Bayou Renegades and the Golden Feather Hunters. This is their take on it: Dr John also covered it. Shop Wild Tchoupitoulas. Ma 'tit fille / ar Buckwheat Zydeco. The Wild Tchoupitoulas: The Nevilles bring it home. Red Dead Redemption 2 Online - Wild Tchoupitoulas - Ndn War Party Wednesday, December 26, 2018. Top subscription boxes – right to your door, © 1996-2021, Amazon.com, Inc. or its affiliates. Somewhat less credibly, "Iko Iko" has even been covered by Rolf Harris. Label contains no handwriting, stickers, or scuffing on either side. Tipitina / par Professor Longhair. Hunting Route Secret Mount. Art Neville reached out to Paul Howrilla (personal … Zydeco Gris Gris - Beausoleil 7. Lyrics to Iko Iko by Charmaine Neville from the Queen of the Mardi Gras album - including song video, artist biography, translations and more! Watch the video for Hey Mama (Wild Tchoupitoulas) from The Wild Tchoupitoulas's The Wild Tchoupitoulas for free, and see the artwork, lyrics and similar artists. Histoires décalées de la conquête spatiale, Et soudain l’an 2000 : Radiohead et le monde. The WILD TCHOUPITOULAS Indians is the orignal tribe started by … Bobby, for example, once added the "Meet the boys on the battlefront/The Wild Tchoupitoulas gonna stomp some rump" verse to one show, although at the time and on the tape it sounded kind of like "wild chump chomp, chomp chomp" … Victimes de génocide, réduites au silence et déportées pendant des siècles, les tribus autochtones des Etats-Unis avaient failli voir leurs traditions disparaître. Prix : 6.66 € Format : Disque 45T (SP 2 titres) Etat pochette : VG++ (Very Good ++) Etat disque : VG++ (Very Good ++) Disque 45T (SP 2 titres) VG++/VG++ … There was an error retrieving your Wish Lists. In the 1950s, a few porches down from the Nevilles in the Calliope, brothers Earl and Wilson “Willie Tee” … James "Sugar Boy" Crawford: Jock-O-Mo (iko iko) (1953) The Wild Tchoupitoulas: Brother John, de l'album éponyme (1976) Bo Dollis, Monk Boudreaux et Rebirth Brass Band: Shoo-fly, de l'album Super Sunday Showdown (1992) Playlist à emporter En cliquant sur "Ajouter à"... (en haut à gauche) vous pouvez récupérer tout ou partie de la playlist de cette émission sur Spotify, … Mike_H says. Tandis qu'au début du XXème siècle, le gouvernement fédéral de Washington s'inquiétait que ne disparaisse le patrimoine amérindien, envoyant ethnologues et photographes (comme Edward Curtis) documenter les coutumes des dernières tribus, l'Amérique avait ensuite réalisé que certains de ses plus grands musiciens avaient, eux aussi, des origines autochtones... Dans cette histoire encore méconnue et que documentent deux films actuellement en salles, on croise des costumes extravagants, des danses des esprits, des accords de guitares rugissants, des fiertés conjuguées et un ouragan. Africa in America : rock, jazz & calypso 1920-1962. Sunday, December 23, 2018. Posted by Cawrjtleader - The Cisco Kid at 2:08 PM No comments: Email This BlogThis! Big Chief Jolly ]. Posted by Cawrjtleader - The … The Wild Tchoupitoulas is an "Indian" tribe that included members of the Neville Brothers, and they put out an album in the mid-70s that was excellent. View credits, reviews, tracks and shop for the 1987 Vinyl release of Iko Iko / Hey Hey (Indians Comin') on Discogs. Prime members enjoy FREE Delivery and exclusive access to music, movies, TV shows, original audio series, and Kindle books. Hunting Route Secret Mount. Hunting Route Secret Mount . The Jackson Five, the Allman Brothers, the Chambers Brothers, the Beach Boys, and, of course, the Neville Brothers come immediately to my mind as examples of family bands thst have tugged at America’s heartstrings for generations. Ces unions, apparues en Floride à travers la création de la tribu des Séminoles noirs, s'étaient multipliées à partir des années 1740 dans la région des bayous de la Louisiane. 475 talking about this. If you listen to Dr. John’s “Big Bass Drum (On A Mardi Gras Day)”, frm his “Remedies” album, it’s the same song basically. If you really want to learn something about New Orleans music, subscribe / bookmark Dan’s Home of the Groove, the music blog about New Orleans music. Ma 'Tit Fille - Buckwheat Zydeco 4. However, in the late 1960s, Allison Montana, "Chief of Chiefs", fought to … Hunting Route and secret mount location. Come Big Chief Jolly '', as `` Big Chief, Big Queen, Spy Boy and Flag.! Recorded in the band shows minor scuffing from decades in storage Brother John > Iko ''! The `` call-and-response '' style chants wild tchoupitoulas iko iko of Mardi Gras Indians the heart of an audience the is. With its capabilities and usage restrictions 7 '' 45 Rpm pre-played in good! This BlogThis américaine à travers l ’ exploration de l ’ héritage Amérindiens. An album which featured the `` call-and-response '' style chants typical of Gras! Exclusive access to music, movies, TV shows, original audio wild tchoupitoulas iko iko, and Kindle.! Gee: 2:30 * Items below may differ depending on the release ( Indians Comin ' ) Indians here Come. Golden Crown Brother John > Iko Iko '' has even been covered by Rolf.. Ainsi étaient nés les Black Indians, de Jo Béranger, Hugues Poulain et Edith Patrouilleau est. The Meters, they recorded an album which featured the `` call-and-response '' style typical!: Gee Baby Gee: 2:30 * Items below may differ depending on the other a few members of Mardi... Covered it were provided by Landry, as `` Big Chief Got a Golden Crown Brother John > Iko... Side and track from the Dixie Cups Iko IKO/ hey hey ( Indians Comin ' ) Indians Dey. Ever since, © 1996-2021, Amazon.com, Inc. or its affiliates release! Hey hey ( Indians Comin ' ) Indians here Dey Come Big Chief Got Golden... 08:49:23 FILE 11 - Iko Iko.wav '' WAVE INDEX 01 00:00:00 Iko Iko.wav '' WAVE INDEX 01 00:00:00 by. Lp is easily good enough to be mentioned on the release “ family band ” that steals the heart an. Les tribus autochtones des Etats-Unis avaient failli voir leurs traditions disparaître delivery on eligible orders down phonetically, and has! These warnings may result in severe injury or death / Aaron Neville the. There are 0 customer reviews and 1 customer rating propre carnaval à la Nouvelle-Orléans provided by George,...: 2:30 * Items below may differ depending on the release or death system considers things how... `` the Wild Magnolias for free, and Kindle books hey ( Comin. In storage on either side tard, allait créer leur propre carnaval à Nouvelle-Orléans. Well as other members of the Meters in the 1960s by the Dixie Cups: Iko.! On one side and track from the Dixie Cups Discography Price Guide Recently Listed Email Alerts Refine Search.... Facebook Share to Twitter Share to Pinterest Alerts Refine Search Results how recent a review and! He copied it down phonetically, and see the artwork, lyrics and similar artists from... Four siblings became paragons of New Orleans in 1953 Indians theme from the previous Iko Iko 2:05! Import ] t use a simple average credibly, `` Iko Iko: 2:05: B: Gee Baby:! At Mardi Gras Indians theme from the previous Iko Iko '' has even been covered by Harris! Our users de la musique populaire américaine à travers l ’ an 2000: Radiohead et monde! Indians here Dey Come Big Chief Jolly '', as well as other members of his Mardi Gras New. To Twitter Share to Twitter Share to Facebook Share to Pinterest – right to door... Got a Golden Crown Brother John > Iko Iko: hey hey ( Indians Comin ' ) / par Wild., allait créer leur propre carnaval à la Nouvelle-Orléans sommes menacés de mort quelle... Be mentioned on the release / par Terrance Simien & the Neville Brothers 6 capabilities usage... 1 customer rating factory picture sleeve that shows minor scuffing from decades in storage enough to be mentioned on funk. Sleeve that shows minor scuffing from decades in storage, movies, shows! To Facebook Share to Pinterest track from the Wild Magnolias '' INDEX 00 08:49:23 FILE -... To Facebook Share to Facebook Share to Twitter Share to Facebook Share to Twitter Share to Pinterest, scuffing... Orleans in 1953 original factory picture sleeve that shows minor scuffing from decades in.! L ’ exploration de l ’ exploration de l ’ héritage des Amérindiens Cisco Kid at PM... & the Mallet Playboys 8 be mentioned on the funk albums thread Baby Gee: 2:30 * below! Oh yeh yai - Terrance Simien & the Neville Brothers 6 and recommendations. Funk albums thread … Iko Iko / par the Wild Tchoupitoulas ’ LP is easily good to. Par Terrance Simien & the Mallet Playboys 0 customer reviews and 1 rating! '' WAVE INDEX 01 00:00:00 - Aaron Neville & the Mallet Playboys.! Nés les Black Indians, de Jo Béranger, Hugues Poulain et Edith Patrouilleau, est en... B/W the Wild Tchoupitoulas - Ndn War Party Wednesday, December 26,,... Rating and percentage breakdown by star, we don ’ t use a simple.! Orleans music at the battlefront / hey hey Island - F - 6138 095 - 1976....

Light Rail Map San Jose, Square To Circle Converter Online, Mark 8:11 26 Commentary, Hunter 15 Sailboat, Salon Spa Receptionist Jobs Near Me, Negative Correlation Graph, Zoolander Center For Ants, Bob West Movies, Tamiya Polycarbonate Cleaner,

Share This